BFDZ

庆余年泄露的第 34 至 46 集源帧率是 18 FPS,YUV 4:2:2, 很多人反应播放设备黑屏及低帧卡顿问题,故重编码为最常见的 YUV420,以解决播放设备不兼容问题。补帧至 25 FPS,很大程度缓解卡顿现象。

此资源转载自馒头,感谢制作者。



Mediainfo

General
Complete name : 庆余年.Qing.Yu.Nian.2019.E34.WEB-DL.1080p.H264.AAC-REPACK.mp4
Format : MPEG-4
Format profile : Base Media
Codec ID : isom (isom)
File size : 1.62 GiB
Duration : 41 min 5 s
Overall bit rate mode : Variable
Overall bit rate : 5 641 kb/s
Encoded date : UTC 2019-12-22 01:48:34
Tagged date : UTC 2019-12-22 01:48:34

Video
ID : 1
Format : AVC
Format/Info : Advanced Video Codec
Format profile : High@L4
Format settings : CABAC / 4 Ref Frames
Format settings, CABAC : Yes
Format settings, Reference fra : 4 frames
Codec ID : avc1
Codec ID/Info : Advanced Video Coding
Duration : 41 min 5 s
Bit rate : 5 508 kb/s
Maximum bit rate : 36.3 Mb/s
Width : 1 920 pixels
Height : 1 080 pixels
Display aspect ratio : 16:9
Frame rate mode : Constant
Frame rate : 25.200 FPS
Color space : YUV
Chroma subsampling : 4:2:0
Bit depth : 8 bits
Scan type : Progressive
Bits/(Pixel*Frame) : 0.105
Stream size : 1.58 GiB (98%)
Writing library : x264 core 157 r2935 545de2f
Encoded date : UTC 2019-12-21 19:12:33
Tagged date : UTC 2019-12-22 01:49:00
Codec configuration box : avcC

Audio
ID : 2
Format : AAC LC
Format/Info : Advanced Audio Codec Low Complexity
Codec ID : mp4a-67-2
Duration : 41 min 5 s
Bit rate mode : Variable
Bit rate : 129 kb/s
Maximum bit rate : 141 kb/s
Channel(s) : 2 channels
Channel layout : L R
Sampling rate : 44.1 kHz
Frame rate : 43.066 FPS (1024 SPF)
Compression mode : Lossy
Stream size : 37.8 MiB (2%)
Encoded date : UTC 2019-12-22 01:48:47
Tagged date : UTC 2019-12-22 01:49:00


 评论